fastshare
Zabiják & bodyguard / The Hitmans Bodyguard (2017)
Vypnout statistiky
KATEGORIEPOSLEDNÍ PŘÍSPĚVKYPOSLEDNÍ OZNÁMENÍSTATISTIKY UŽIVATELE
Nick: Anonymous
Příspěvků: 3367
Hodnost: Warman
Varování: 0
---
Právě je 23 kvě 2018, 10:15





Všechny časy jsou v UTC + 1 hodina


Pravidla fóra







Odeslat nové téma Odpovědět na téma  [ Příspěvků: 6 ] 
 Zabiják & bodyguard / The Hitmans Bodyguard (2017) 
Autor Zpráva
Colonel 3 rd class
Colonel 3 rd class

Registrován: 04 led 2008, 07:29
Příspěvky: 464
Příspěvek Zabiják & bodyguard / The Hitmans Bodyguard (2017)

Zabiják & bodyguard / The Hitmans Bodyguard (2017)

Zabiják & bodyguard / The Hitmans Bodyguard (2017)















Naposledy upravil bakyree dne 03 led 2018, 19:11, celkově upraveno 6

03 led 2018, 15:03
Profil
Colonel 4 th class
Colonel 4 th class

Registrován: 20 čer 2015, 20:36
Příspěvky: 586
Příspěvek Re: Zabiják & bodyguard / The Hitmans Bodyguard (2017)

Zabiják & bodyguard / The.Hitmans.Bodyguard / 2017


The.Hitmans.Bodyguard.2017.720p.BluRay.x264.AC3.CZ
The.Hitmans.Bodyguard.2017.1080p.BluRay.x264.AC3.CZ


Audio: CZ (2.0),EN
Subtitles: CZ(f),CZ

Re: Zabiják & bodyguard / The Hitmans Bodyguard (2017)



The.Hitmans.Bodyguard.2017.720p.BluRay.x264.AC3.CZ






********



The.Hitmans.Bodyguard.2017.1080p.BluRay.x264.AC3.CZ




PASSWORD: NO
REUPLOAD NEDĚLÁM
Záznam pro opravu dat 3%


03 led 2018, 15:13
Profil
Warman
Warman

Registrován: 26 kvě 2015, 00:50
Příspěvky: 1268
Příspěvek Re: Zabiják & bodyguard / The Hitmans Bodyguard (2017)

Zabiják a bodyguard / The Hitman's Bodyguard (2017)

CSFD:



Re: Zabiják & bodyguard / The Hitmans Bodyguard (2017)

The.Hitmans.Bodyguard.2017.720p.BluRay.x264.CZ
The.Hitmans.Bodyguard.2017.1080p.BluRay.x264.CZ
The.Hitmans.Bodyguard.2017.1080p.BluRay.x264.CZ


The.Hitmans.Bodyguard.2017.720p.BluRay.x264.CZ
Jazyk: Czech 2,0 224 Kbps , English 5.1 640 Kbps
Subtitles: Czech forced , Czech , English

iNFO



Re: Zabiják & bodyguard / The Hitmans Bodyguard (2017)


Přidán záznam na opravu dat 5%.
The.Hitmans.Bodyguard.2017.1080p.BluRay.x264.CZ
Jazyk: Czech 2.0 224 Kbps , English 5.1 640 Kbps
Subtitles: Czech forced , Czech , English
iNFO



Re: Zabiják & bodyguard / The Hitmans Bodyguard (2017)


Přidán záznam na opravu dat 5%.
The.Hitmans.Bodyguard.2017.1080p.BluRay.x264.CZ
Jazyk: Czech 2.0 224 Kbps , English 5.1 640 Kbps
Subtitles: Czech forced , Czech , English
iNFO



Re: Zabiják & bodyguard / The Hitmans Bodyguard (2017)


Přidán záznam na opravu dat 5%.


04 led 2018, 05:56
Profil
Sergeant
Sergeant

Registrován: 20 lis 2008, 18:20
Příspěvky: 81
Příspěvek Re: Zabiják & bodyguard / The Hitmans Bodyguard (2017)

Zabiják & bodyguard / The Hitmans Bodyguard (2017) 1080p, 2.0CZ , x265 HEVC






Re: Zabiják & bodyguard / The Hitmans Bodyguard (2017)





)..(



05 led 2018, 20:23
Profil
Private
Private

Registrován: 02 črc 2010, 19:33
Příspěvky: 2
Příspěvek Re: Zabiják & bodyguard / The Hitmans Bodyguard (2017)

Prosím viete pridať aj so zvukom 5.1 :shock: ďakujem


06 led 2018, 17:55
Profil
Captain
Captain

Registrován: 30 pro 2007, 17:16
Příspěvky: 298
Příspěvek Re: Zabiják & bodyguard / The Hitmans Bodyguard (2017)

Zabiják & bodyguard / The Hitman's Bodyguard (2017)
Video/Zdroj: BluRay 1080p
Audio: CZ 5.1ch DTS, CZ 5.1ch AC-3, EN 5.1ch AC-3
Titulky: CZ, SK, EN

Re: Zabiják & bodyguard / The Hitmans Bodyguard (2017)



Citace:
Format : Matroska
Format version : Version 4 / Version 2
File size : 15.7 GiB
Duration : 1 h 58 min
Overall bit rate : 19.0 Mb/s

Video
Format : AVC
Format profile : [email protected]
Duration : 1 h 58 min
Bit rate : 16.2 Mb/s
Width : 1 920 pixels
Height : 804 pixels
Display aspect ratio : 2.40:1
Frame rate mode : Constant
Frame rate : 23.976 (24000/1001) FPS
Color space : YUV
Chroma subsampling : 4:2:0
Bit depth : 8 bits
Scan type : Progressive
Bits/(Pixel*Frame) : 0.437
Stream size : 13.4 GiB (85%)

Audio #1
Format : AC-3
Duration : 1 h 58 min
Bit rate mode : Constant
Bit rate : 640 kb/s
Channel(s) : 6 channels
Channel positions : Front: L C R, Side: L R, LFE
Sampling rate : 48.0 kHz
Frame rate : 31.250 FPS (1536 SPF)
Bit depth : 16 bits
Compression mode : Lossy
Stream size : 541 MiB (3%)
Language : Czech
Default : Yes
Forced : Yes

Audio #2
Format : DTS
Duration : 1 h 57 min
Bit rate mode : Constant
Bit rate : 1 509 kb/s
Channel(s) : 6 channels
Channel positions : Front: L C R, Side: L R, LFE
Sampling rate : 48.0 kHz
Frame rate : 93.750 FPS (512 SPF)
Bit depth : 24 bits
Compression mode : Lossy
Delay relative to video : 20 s 55 ms
Stream size : 1.24 GiB (8%)
Language : Czech
Default : No
Forced : No

Audio #3
Format : AC-3
Duration : 1 h 58 min
Bit rate mode : Constant
Bit rate : 640 kb/s
Channel(s) : 6 channels
Channel positions : Front: L C R, Side: L R, LFE
Sampling rate : 48.0 kHz
Frame rate : 31.250 FPS (1536 SPF)
Bit depth : 16 bits
Compression mode : Lossy
Stream size : 541 MiB (3%)
Language : English
Default : No
Forced : No

Text #1
Format : UTF-8
Language : Czech
Default : Yes
Forced : Yes

Text #2
Format : UTF-8
Language : Czech
Default : No
Forced : No

Text #3
Format : UTF-8
Language : Slovak
Default : No
Forced : No

Text #4
Format : UTF-8
Language : English
Default : No
Forced : No

Text #5
Format : UTF-8
Language : English
Default : No
Forced : No




Bez hesla. Balené bez kompresie. Pridaný záznam pre opravu dát 5%.


21 dub 2018, 21:04
Profil
Zobrazit příspěvky za předchozí:  Seřadit podle  
Odeslat nové téma Odpovědět na téma  [ Příspěvků: 6 ] 

Všechny časy jsou v UTC + 1 hodina


Nemůžete zakládat nová témata v tomto fóru
Nemůžete odpovídat v tomto fóru
Nemůžete upravovat své příspěvky v tomto fóru
Nemůžete mazat své příspěvky v tomto fóru
Nemůžete přikládat soubory v tomto fóru









StahovaniZaSMS Pizza Modena MP3 free download